Become a part of the TranceAddict community!Frequently Asked Questions - Please read this if you haven'tSearch the forums
TranceAddict Forums > Tracks Section > Tracklist Requests / Postings > [Request] Armin van Buuren - Live @ Dance Valley [08.05.2000]
  Last Thread   Next Thread
Author
Thread    Post A Reply
DJEnergyRo
Crystal Minds



Registered: Jul 2011
Location: Bucharest, Rom‚nia
[Request] Armin van Buuren - Live @ Dance Valley [08.05.2000]

Hello guys,

Does anyone know the songs missing from this?

Part.1 http://www104.zippyshare.com/v/hyLyB5R1/file.html

Part.2 http://www49.zippyshare.com/v/hXruPl0c/file.html

01. Bismark - Make A Dream (Club Mix) [Legend Records – LGMX012]
02. ID [Sample]
03. DJ Nukem vs. Chab - Shaïva (Original Mix) [Cyber Records – CR 038]
04. Corvin Dalek - Pounds & Penz (Flatner's Deutsche Mark Remix) [MFS - MFS 7133-6]
05. Signum - Solar Level [Jinx Records – JX-640]
06. DJ Eyal - Dreamcatcher (Original Mix) [Phatt Phunk Records – PP 027]
07. Marco V - Tolerance [Free For All - 7003215]
08. ID
09. Andy Ling – Fixation (Airwave Remix) [Tranceportation – TP-2000-025]
10. Armin van Buuren And DJ TiŽsto Present Alibi - Eternity (Armin van Buuren's Rising Star Mix) [Armind - ARM004]
11. DJ TiŽsto & Armin van Buuren Present Major League - Wonder? (Transa Remix) [Club Culture - 8573-83882-0]

If anybody has the whole set please post them here.

Thanks.


___________________
Trance Music Is Still Alive!
Please help me to identify these tracks: Trance, Progressive House, Deep House, Tribal House, from 1997-2006 Listen here https://soundcloud.com/djenergyro

Last edited by DJEnergyRo on Feb-09-2016 at 21:50

Old Post Today 18:40  Romania
Click Here to See the Profile for DJEnergyRo Click here to Send DJEnergyRo a Private Message Visit DJEnergyRo's homepage! Add DJEnergyRo to your buddy list Report this Post Reply w/Quote Edit/Delete Message
Zjokke1977
Supreme tranceaddict



Registered: Aug 2003
Location: Keerbergen

http://www.filedropper.com/2000-08-...alareaamsterdam

code:
PERFORMER "Armin van Buuren" TITLE "Live At Dance Valley 6 At Spaarnwoude Recreational Area in Amsterdam (2000-08-05)" FILE "01_armin_van_buuren_-_live_at_dance_valley_6_at_spaarnwoude_recreational_area_in_amsterdam__2000-08-05.mp3" MP3 TRACK 01 AUDIO PERFORMER "Bismark" TITLE "Make A Dream (Club Mix)" INDEX 01 00:00:00 TRACK 02 AUDIO PERFORMER "ID" TITLE "ID" INDEX 01 04:14:00 TRACK 03 AUDIO PERFORMER "DJ Nukem vs. Chab" TITLE "Shaiva" INDEX 01 10:05:00 TRACK 04 AUDIO PERFORMER "Corvin Dalek" TITLE "Pounds & Penz (Flatner's Deutsche Mark Mix)" INDEX 01 14:20:00 TRACK 05 AUDIO PERFORMER "Signum" TITLE "Solar Level" INDEX 01 19:04:00 TRACK 06 AUDIO PERFORMER "ID" TITLE "ID" INDEX 01 23:05:00 FILE "02_armin_van_buuren_-_live_at_dance_valley_6_at_spaarnwoude_recreational_area_in_amsterdam__2000-08-05.mp3" MP3 TRACK 07 AUDIO PERFORMER "Marco V" TITLE "Tolerance" INDEX 01 00:00:00 TRACK 08 AUDIO PERFORMER "ID" TITLE "ID" INDEX 01 05:46:00 TRACK 09 AUDIO PERFORMER "Andy Ling" TITLE "Fixation (Airwave Remix)" INDEX 01 09:08:00 TRACK 10 AUDIO PERFORMER "Armin van Buuren & DJ TiŽsto pres. Alibi" TITLE "Eternity" INDEX 01 16:44:00 TRACK 11 AUDIO PERFORMER "DJ TiŽsto & Armin van Buuren pres. Major League" TITLE "Wonder? (Transa Remix)" INDEX 01 23:08:00

Last edited by Zjokke1977 on Feb-09-2016 at 19:46

Old Post Today 19:00  Belgium
Click Here to See the Profile for Zjokke1977 Click Here to Email Zjokke1977 Click here to Send Zjokke1977 a Private Message Add Zjokke1977 to your buddy list Report this Post Reply w/Quote Edit/Delete Message
DJEnergyRo
Crystal Minds



Registered: Jul 2011
Location: Bucharest, Rom‚nia

Super Zjokke1977
Thank you very much.


___________________
Trance Music Is Still Alive!
Please help me to identify these tracks: Trance, Progressive House, Deep House, Tribal House, from 1997-2006 Listen here https://soundcloud.com/djenergyro

Old Post Today 20:19  Romania
Click Here to See the Profile for DJEnergyRo Click here to Send DJEnergyRo a Private Message Visit DJEnergyRo's homepage! Add DJEnergyRo to your buddy list DJEnergyRo is online now Report this Post Reply w/Quote Edit/Delete Message
DJEnergyRo
Crystal Minds



Registered: Jul 2011
Location: Bucharest, Rom‚nia

10. Armin van Buuren And DJ TiŽsto Present Alibi - Eternity (Armin van Buuren's Rising Star Mix) [Armind - ARM004]

Info: http://www.discogs.com/Armin-van-Bu...y/release/20067
Sample: https://www.youtube.com/watch?v=DM0Ew53BA9g


___________________
Trance Music Is Still Alive!
Please help me to identify these tracks: Trance, Progressive House, Deep House, Tribal House, from 1997-2006 Listen here https://soundcloud.com/djenergyro

Old Post Today 21:00  Romania
Click Here to See the Profile for DJEnergyRo Click here to Send DJEnergyRo a Private Message Visit DJEnergyRo's homepage! Add DJEnergyRo to your buddy list DJEnergyRo is online now Report this Post Reply w/Quote Edit/Delete Message
DJEnergyRo
Crystal Minds



Registered: Jul 2011
Location: Bucharest, Rom‚nia

06. DJ Eyal - Dreamcatcher (Original Mix) [Phatt Phunk Records – PP 027]

Info: http://www.discogs.com/DJ-Eyal-Drea.../release/147705
Sample: https://www.youtube.com/watch?v=mxpfGCk9euo


___________________
Trance Music Is Still Alive!
Please help me to identify these tracks: Trance, Progressive House, Deep House, Tribal House, from 1997-2006 Listen here https://soundcloud.com/djenergyro

Old Post Today 21:49  Romania
Click Here to See the Profile for DJEnergyRo Click here to Send DJEnergyRo a Private Message Visit DJEnergyRo's homepage! Add DJEnergyRo to your buddy list DJEnergyRo is online now Report this Post Reply w/Quote Edit/Delete Message

TranceAddict Forums > Tracks Section > Tracklist Requests / Postings > [Request] Armin van Buuren - Live @ Dance Valley [08.05.2000]
Post New Thread    Post A Reply

 
Last Thread   Next Thread
Show Printable Version | Subscribe to this Thread

Forum Jump:

All times are GMT. The time now is 22:25.

Forum Rules:
You may not post new threads
You may not post replies
You may not edit your posts
HTML code is ON
vB code is ON
[IMG] code is ON
 
Search this Thread:

 
Contact Us - return to tranceaddict

Powered by: Trance Music & vBulletin Forums
Copyright ©2000-2016

Privacy Statement / DMCA
Geo Visitors Map

Icon