return to tranceaddict TranceAddict Forums Archive > Tracks Section > Tracklist Requests / Postings

 
Cor Fijneman - Llive On DI FM (23-04-2003)
View this Thread in Original format
HALF-LIFE
Tracklist anyone ?
Bennyb
01. Solarstone vs. Sirocco - Destination
02. Midway - Monkey Forest (Vincent & Quentin Remix)
03. Three Drives - Unknown
04. Drax & Scott Mac - Angel (Katana Remix)
05. Dogzilla Project - Dogzilla (Mix 1)
06. Roc Project - Never (Filterheadz Dub Mix)
07. Planet Perfecto - Bullet in the Gun (BK Remix)
08. Visionaire - Bodyfever
09. Steve Murano - Timeless (Passion)
10. Ricky Fobbis - Unknown
11. DJ Joop - Act of God (Hardtrance Remix)
TranceRulez
re-broadcast?
roeland
FILE Cor_Fijneman-live_on_di_fm_-_23rd_April_2003.mp3 MP3
TRACK 01 AUDIO
INDEX 01 00:00:00
TITLE "01. Solarstone vs. Sirocco - Destination"
TRACK 02 AUDIO
TITLE "02. Midway - Monkey Forest (Vincent & Quentin Remix)"
INDEX 01 07:07:70
TRACK 03 AUDIO
TITLE "03. Three Drives - Unknown"
INDEX 01 11:43:17
TRACK 04 AUDIO
TITLE "04. Drax & Scott Mac - Angel (Katana Remix)"
INDEX 01 17:55:00
TRACK 05 AUDIO
TITLE "05. Dogzilla Project - Dogzilla (Mix 1)"
INDEX 01 24:34:00
TRACK 06 AUDIO
TITLE "06. Roc Project - Never (Filterheadz Dub Mix)"
INDEX 01 29:50:15
TRACK 07 AUDIO
TITLE "07. Planet Perfecto - Bullet in the Gun (BK Remix)"
INDEX 01 35:47:55
TRACK 08 AUDIO
TITLE "08. Visionaire - Bodyfever"
INDEX 01 41:33:27
TRACK 09 AUDIO
TITLE "09. Steve Murano - Timeless (Passion)"
INDEX 01 46:35:35
TRACK 10 AUDIO
TITLE "10. Ricky Fobbis - Unknown"
INDEX 01 53:00:00
TRACK 11 AUDIO
TITLE "11. DJ Joop - Act of God (Hardtrance Remix)"
INDEX 01 58:33:25
DJ-Ande
where can i find this???:conf: :conf:
Alesh
01. Solarstone vs. Sirocco - Destination
02. Midway - Monkey Forest (Vincent & Quentin Remix)
03. Three Drives - Unknown
04. Drax & Scott Mac - Angel (Katana Remix)
05. Dogzilla Project - Dogzilla (Mix 1)
06. Roc Project - Never (Filterheadz Dub Mix)
07. Planet Perfecto - Bullet in the Gun (BK Remix)
08. Visionaire - Bodyfever
09. Steve Murano - Timeless (Passion)
10. Ricky Fobis - Disorder
11. DJ Joop - Act of God (Hardtrance Remix)
HALF-LIFE
Guys its only privat site. This my little sekret.
Download i Kazaa.
Alesh
01. Solarstone vs. Sirocco - Destination
02. Midway - Monkey Forest (Vincent & Quentin Remix)
03. Three Drives - Unknown
04. Drax & Scott Mac - Angel (Katana Remix)
05. Dogzilla Project - Dogzilla (Mix 1)
06. Roc Project - Never (Filterheadz Dub Mix)
07. Planet Perfecto - Bullet in the Gun (BK Remix)
08. Visionaire - Bodyfever
09. Steve Murano - Timeless (Passion)
10. Ricky Fobis - No Regular
11. DJ Joop - Act of God (Hardtrance Remix)
modenar1
he has been playin this same tracklist for over a month now
Morgemil
you can download from www.clubber.com.ar
an argentinian site of trance.
CLICK TO RETURN TO TOP OF PAGE
 
Privacy Statement