return to tranceaddict TranceAddict Forums Archive > Tracks Section > Tracklist Requests / Postings

Pages: [1] 2 3 4 5 6 7 8 
Paul Van Dyk - live at Mayday (30-04-2003)
View this Thread in Original format
Jocker
01. Intro
02. Free State - Release (Dirt Devils Dub) (Anjunabeats)
03. 4 Strings - Let It Rain (Liquid)
04. Rafferty & Kershaw - We Are Connected (Endeavour)
05. Paul Van Dyk - Nothing But You (PVD's Original Mix) (CDR)
06. DJ Arabesque vs. Jakyro - Strance (Jakyro Mix) (BXR)
07. Kyau Vs. Albert - Velvet Mornings (Mirco De Govia Remix) (Euphonic)
08. Aalto - Rush (Super 8 Mix) (Anjunabeats)
09. Michelle Nicol - Time (White Label)
10. Ferry Corsten - Indigo (Original Mix) (Tsunami)
11. Paul van Dyk vs. Marco V - For A Revolt (Bootleg)
12. Marcos - Sunfire (J K Walker Remix) (90 Degrees North)
13. Polaris - Ripple Driver (Paul van Dyk Rework) (CDR)

CUE:

quote:

FILE 01-mayday_2003_-_paul_van_dyk_live-04-30-2003-xds.mp3 MP3
TRACK 01 AUDIO
TITLE "Intro"
INDEX 01 00:00:00
TRACK 02 AUDIO
TITLE "Release (Dirt Devils Dub)"
PERFORMER "Free State"
INDEX 01 01:51:43
TRACK 03 AUDIO
TITLE "Let It Rain"
PERFORMER "4 Strings"
INDEX 01 06:33:30
TRACK 04 AUDIO
TITLE "We Are Connected"
PERFORMER "Rafferty & Kershaw"
INDEX 01 12:42:36
TRACK 05 AUDIO
TITLE "Nothing But You (PVD Original MIX)"
PERFORMER "Paul Van Dyk"
INDEX 01 17:49:66
TRACK 06 AUDIO
TITLE "Strance (Jakyro Mix)"
PERFORMER "DJ Arabesque vs. Jakyro"
INDEX 01 24:31:62
TRACK 07 AUDIO
TITLE "Velvet Mornings (Mirco De Govia Remix)"
PERFORMER "Kyau Vs. Albert"
INDEX 01 29:12:59
TRACK 08 AUDIO
TITLE "Rush (Super 8 Mix)"
PERFORMER "Aalto"
INDEX 01 33:49:48
TRACK 09 AUDIO
TITLE "Time"
PERFORMER "Michelle Nicol"
INDEX 01 37:27:34
TRACK 10 AUDIO
TITLE "Indigo (Original Mix)"
PERFORMER "Ferry Corsten"
INDEX 01 41:58:44
TRACK 11 AUDIO
TITLE "For A Revolt"
PERFORMER "Paul van Dyk vs. Marco V"
INDEX 01 48:29:45
TRACK 12 AUDIO
TITLE "Sunfire (J K Walker Remix)"
PERFORMER "Marcos"
INDEX 01 50:30:30
TRACK 13 AUDIO
TITLE "Ripple Driver (Paul van Dyk Rework)"
PERFORMER "Polaris"
INDEX 01 54:15:31
thesuperfunk
01. Intro
02. Free State - Release (Dirt Devils Remix)
03. 4 Strings - Let It Rain
04. Rafferty & Kershaw - We Are Connected
05. Paul Van Dyk - Nothing But You (PvD 'bootleg' Mix)
6. ID
7. Kyau Vs. Albert - Velvet Mornings (Mirco De Govia Remix) [PvD Edit]
8. Aalto - Rush (Super 8 Remix)
9. Michelle Nicol - Time
Jocker
hehe
thanks for helping:)
Piotr3k
(stolen from PVDPlanet)
06. DJ Arabesque vs. Jakyro - Strance (Jakyro Mix)
Jocker
quote:
Originally posted by Piotr3k
(stolen from PVDPlanet)
06. DJ Arabesque vs. Jakyro - Strance (Jakyro Mix)


thanks!


now it's complete!
sputnik_IL
Paul Van Dyk live@ at MAYDAY Dortmund Germany 2003

01 ID
02. Free State - Release (Dirt Devils Dub)
03 4 strings - let it rain
04 ID
05 Paul van Dyk - Nothing But You (PVD MIX)
06 DJ Arabesque vs. Jakyro - Strance (Jakyro Mix)
07 Kyau vs. Albert - Velvet Morning (PvD EDIT)
08 Aalto - Rush (Super 8 Mix)
09 Michelle Nicol - Time
DJ Mikey Mike
01. Intro
02. Free State - Release (Dirt Devils Dub)
03. 4 Strings - Let It Rain (Original Dub)
04. Rafferty & Kershaw - We Are Connected
05. Paul van Dyk - Nothing But You (PvD's Original Mix)
06. DJ Arabesque vs. Jakyro - Strance (Jakyro Mix)
07. Kyau vs. Albert - Velvet Morning (Mirco De Govia Remix - PvD Edit)
08. Aalto - Rush (Super8 Remix)
09. Michelle Nicol - Time
10. Ferry Corsten - Indigo
11. Paul van Dyk vs. Marco V - For A Revolt
12. ID
13. Polaris - Ripple Driver (Paul van Dyk Rework)
thesuperfunk
01. Intro
02. Free State - Release (Dirt Devils Dub)
03. 4 Strings - Let It Rain (Original Dub)
04. Rafferty & Kershaw - We Are Connected
05. Paul van Dyk - Nothing But You (PvD's Original Mix)
06. DJ Arabesque vs. Jakyro - Strance (Jakyro Mix)
07. Kyau vs. Albert - Velvet Morning (Mirco De Govia Remix) [PvD Edit]
08. Aalto - Rush (Super 8 Remix)
09. Michelle Nicol - Time
10. Ferry Corsten - Indigo
11. Marco V - Revolt (Paul van Dyk Remix)
12. ID
13. Polaris - Ripple Drive (Paul van Dyk Rework)
trancearmada
just a little observation but it was actually broadcast: (01-05-2003)
McP68
What's the first and the Track 12 ?

kreischer2000
quote:
Originally posted by trancearmada
just a little observation but it was actually broadcast: (01-05-2003)


the party was organized the 30th :p
trancearmada
quote:
Originally posted by kreischer2000
the party was organized the 30th :p


it should just be called Mayday 2003 Germany I mean there are no other Mayday's in Germany this year! :tongue2
CLICK TO RETURN TO TOP OF PAGE
Pages: [1] 2 3 4 5 6 7 8 
Privacy Statement