return to tranceaddict TranceAddict Forums Archive > Tracks Section > Tracklist Requests / Postings

 
Armin Van Buuren Live at homeclub Budapest 3-27-2004
View this Thread in Original format
neoterixx
There is a track on this World Tour set about 27 minutes into the set the track is sun by a female vocal with the words:

" down through the dark trees, you came to save me, your so ugly and your so beautiful, your like no one on earth (2X). All of my life Ive been waiting for you, I want to be the one that you take home, let me be the one cause im so lonely, take me home in time you'll love me like one of your own, take me home with you no one knows me like you do"

Does anyone know this track? I think Tiesto and Armin have it on a couple of their sets. Thanks in advance! :)
24K
Above & Beyond- No One On Earth (Gabriel & Dresden Remix)

:)
Fresh Prince
Yea please do
neoterixx
quote:
Originally posted by 24K
Above & Beyond- No One On Earth (Gabriel & Dresden Remix)

:)


This is not the song, but thanks! :(
yaman
you sure?

it's sounds like no one on earth of above & beyond
24K
quote:
Originally posted by neoterixx
This is not the song, but thanks! :(


heh

well that song has the exact same lyrics you mentioned..

maybe he played the original mix??

:conf:
neoterixx
yeah its the original, sorry that I doubted you. :(
yaman
01 Solid Globe - Sahara
02 Filo & Peri pres. Whirlpool - Under The Sun (Solar Stone Remix)
03 Witness of Wonder - Emotions In Motions (Thrillseekers Remix)
04 Roland Klinkenberg - Monday Groove
05 Above & Beyond - No One On Earth (Gabriel & Dresden Remix)
06 Özgür Can - Irony
07 ID
08 Active Sight - Search For Freedom
09 Paul van Dyk - Crush
10 Sonic Vibe & Mike Shiver - Lunation (Masters & Nickson Remix)
11 Midway - Amazon
12 Mark Norman - Phantom Manor
13 Binary Finary - 1999 (Ronski Speed Remix)
14 Motorcycle - As The Rush Comes (Armin van Buuren Remix)
15 Sensorica - Few Days Away (John Askew Remix)
16 Marco V vs Jens - Loops & Things (Relooped)
17 Marco V - God Child
18 Mojado & Mr. Sam - Naranja (Dimitri Andreas Remix)
19 True Form - Forbidden Colors
20 Kyau vs Albert - Velvet Morning (Aalto Remix)
21 M.I.K.E - Turn Out The Lights
22 Arc In The Sky - Vaniquer
23 Airwave vs Rising Star - Sunspot (DCML Remix)
24 Kay D Smith & Mark Tall pres. Passive Resistance - Praiseworthy Tunes (Hoipolloi Remix)
25 G & M Project - Sunday Afternoon
26 Fictivision & Phynn - Escape (Phynn Remix)
27 Armin van Buuren - Yet Another Day (Hiver & Hammer Ground Control Remix)
28 Solar Factor - Urban Shakedown
29 DJ Tiesto & BT - Love Comes Again (Mark Norman Remix)
30 Armin van Buuren - Burned With Desire (Rising Star Remix)
roeland
FILE "Armin Van Buuren - Live @ Home Club Budapest.mp3" MP3
TRACK 01 AUDIO
INDEX 01 00:00:00
TITLE "01 Solid Globe - Sahara"
TRACK 02 AUDIO
TITLE "02 Filo & Peri pres. Whirlpool - Under The Sun (Solar Stone Remix)"
INDEX 01 07:56:30
TRACK 03 AUDIO
TITLE "03 Witness of Wonder - Emotions In Motions (Thrillseekers Remix)"
INDEX 01 13:47:11
TRACK 04 AUDIO
TITLE "04 Roland Klinkenberg - Monday Groove"
INDEX 01 20:21:30
TRACK 05 AUDIO
TITLE "05 Above & Beyond - No One On Earth (Gabriel & Dresden Remix)"
INDEX 01 26:56:38
TRACK 06 AUDIO
TITLE "06 Özgür Can - Irony"
INDEX 01 34:38:15
TRACK 07 AUDIO
TITLE "07 ID"
INDEX 01 40:09:57
TRACK 08 AUDIO
TITLE "08 Active Sight - Search For Freedom"
INDEX 01 45:19:46
TRACK 09 AUDIO
TITLE "09 Paul van Dyk - Crush"
INDEX 01 51:35:55
TRACK 10 AUDIO
TITLE "10 Sonic Vibe & Mike Shiver - Lunation (Masters & Nickson Remix)"
INDEX 01 58:36:04
TRACK 11 AUDIO
TITLE "11 Midway - Amazon vs Jens - Loops & Tings"
INDEX 01 65:32:62
TRACK 12 AUDIO
TITLE "12 Mark Norman - Phantom Manor"
INDEX 01 71:45:20
TRACK 13 AUDIO
TITLE "13 Binary Finary - 1999 (Ronski Speed Remix)"
INDEX 01 78:37:31
TRACK 14 AUDIO
TITLE "14 Motorcycle - As The Rush Comes (Armin van Buuren Remix)"
INDEX 01 87:06:01
TRACK 15 AUDIO
TITLE "15 Sensorica - Few Days Away (John Askew Remix)"
INDEX 01 94:08:10
TRACK 16 AUDIO
TITLE "16 Marco V vs Jens - Loops & Things (Relooped)"
INDEX 01 98:43:69
TRACK 17 AUDIO
TITLE "17 Marco V - God Child"
INDEX 01 103:24:23
TRACK 18 AUDIO
TITLE "18 Mojado & Mr. Sam - Naranja (Dimitri Andreas Remix)"
INDEX 01 108:05:67
TRACK 19 AUDIO
TITLE "19 True Form - Forbidden Colors"
INDEX 01 113:10:08
TRACK 20 AUDIO
TITLE "20 Kyau vs Albert - Velvet Morning (Aalto Remix)"
INDEX 01 120:14:49
TRACK 21 AUDIO
TITLE "21 M.I.K.E - Turn Out The Lights"
INDEX 01 127:24:12
TRACK 22 AUDIO
TITLE "22 Arc In The Sky - Vaniquer"
INDEX 01 134:39:72
TRACK 23 AUDIO
TITLE "23 Airwave vs Rising Star - Sunspot (DCML Remix)"
INDEX 01 142:14:51
TRACK 24 AUDIO
TITLE "Passive Resistance - Praiseworthy Tunes (Hoipolloi Remix)"
INDEX 01 149:16:37
TRACK 25 AUDIO
TITLE "25 G & M Project - Sunday Afternoon"
INDEX 01 154:50:06
TRACK 26 AUDIO
TITLE "26 Fictivision & Phynn - Escape (Phynn Remix)"
INDEX 01 161:35:55
TRACK 27 AUDIO
TITLE "27 Armin van Buuren - Yet Another Day (Hiver & Hammer Ground Control Remix)"
INDEX 01 168:52:03
TRACK 28 AUDIO
TITLE "28 Solar Factor - Urban Shakedown"
INDEX 01 175:54:25
TRACK 29 AUDIO
TITLE "29 DJ Tiesto & BT - Love Comes Again (Mark Norman Remix)"
INDEX 01 181:37:19
TRACK 30 AUDIO
TITLE "30 Armin van Buuren - Burned With Desire (Rising Star Remix)"
INDEX 01 187:20:03
CLICK TO RETURN TO TOP OF PAGE
 
Privacy Statement