return to tranceaddict TranceAddict Forums Archive > Tracks Section > Tracklist Requests / Postings

 
Hernan Cattaneo Resident Live From London 17-07-2004 (METRO 95.1 FM)
View this Thread in Original format
predictor
anyone have a tracklist for these 2hours ??
TomTom
Check Cattaneos website, normally the tracklists are online until Wednesday. http://www.hernancattaneo.com/radio.php
Terr0r
Part 1
TRACK 01 AUDIO
TITLE "01. Hernan Cerbello - Don't Disturb"
INDEX 01 00:00:00
TRACK 02 AUDIO
TITLE "02. Nick Delgado - Danger Boy"
INDEX 01 06:21:10
TRACK 03 AUDIO
TITLE "03. Kriece - Tell Me I'm Pretty"
INDEX 01 11:28:30
TRACK 04 AUDIO
TITLE "04. Nathan Fake - Bored Of House"
INDEX 01 18:07:59
TRACK 05 AUDIO
TITLE "05. Deep Mariano - The Weak"
INDEX 01 20:03:10
TRACK 06 AUDIO
TITLE "06. Alex Santer - Astra"
INDEX 01 29:11:50
TRACK 07 AUDIO
TITLE "07. MMM - Enter The Dub"
INDEX 01 37:09:58
TRACK 08 AUDIO
TITLE "08. Buick Project - Drop Da Beat"
INDEX 01 43:13:45

Part 2
TRACK 01 AUDIO
TITLE "01. Shiloh - Dream On"
INDEX 01 00:00:00
TRACK 02 AUDIO
TITLE "02. Baunder - Homesick"
INDEX 01 07:41:15
TRACK 03 AUDIO
TITLE "03. Deepsky - Talk Like a Stranger"
INDEX 01 15:23:10
TRACK 04 AUDIO
TITLE "04. Alex Stealthy - Something Is Wrong"
INDEX 01 23:48:00
TRACK 05 AUDIO
TITLE "05. Kosmas Epsilon - Architect"
INDEX 01 32:43:52
TRACK 06 AUDIO
TITLE "06. Subsky Vs. Miss Kittin - Professional Distortion"
INDEX 01 37:54:08
TRACK 07 AUDIO
TITLE "07. Matthew Lynch - Bingo Bongo"
INDEX 01 45:54:00
chico266
wooooooow track 6 on CD-1

Alex Santer - Astra
is just awesome!! any one have it?! plese!!
Terr0r
really great set IMO
the only annoying thing is that the metrofm guy has to open his mouth atleast once between a track :toothless
CLICK TO RETURN TO TOP OF PAGE
 
Privacy Statement