return to tranceaddict TranceAddict Forums Archive > Tracks Section > Tracklist Requests / Postings

 
Lady Dana - Live @ Qlimax
View this Thread in Original format
Kurteke
Hey Guys!

Who's got the tracklist of "Lady Dana - Live @ Qlimax"?
Please help me, coz th is is the max!!! :D

Seeya Soon,

Kurteke
exte
Lady Dana Live @ qlimax - 02 -06 -2001

1: Microbots - Cosmic Evolution (DJ Scot Project Remix)
2: Tankis & Savietto - Octopus (lost in case remix)
3: Mo-dem - Contact (we gotta connect) (warp brothers remix)
4: Public Domain - Rock da funky beats
5: Yoda Inc. - Definitely (dj scot project remix)
6: DJ X2000 - Modem (DJ Scot Project Remix)
7: A*S*Y*S - Acid nightmare
8: DJ Scot Project - O (overdrive)
9: The Moon - Blow the speakers (original mix)
10: Dare Devils - !Dare devil!!
11: Zenith Vs. Avex - I'm your deejay
12: Deepack - Dropout
13: Cosmic Gate - Fire wire (remix)
14: S.H.O.K.K. - Folie A Deux (Klub Mix) ?
15: Thomas Trouble - Insane asylum (smp club mix)

Cue

FILE "E:\001_Lady Dana - Qlimax.wav" WAVE
TRACK 01 AUDIO
TITLE "Cosmic Evolution (DJ Scot Project remix)"
PERFORMER Microbots
INDEX 01 00:00:00
TRACK 02 AUDIO
TITLE "Octopus (Lost in case remix)"
PERFORMER "Tankis & Savietto"
INDEX 01 07:08:26
TRACK 03 AUDIO
TITLE "Modem (DJ Scot Project remix)"
PERFORMER "DJ X2000"
INDEX 01 12:50:72
TRACK 04 AUDIO
TITLE "Rock da funky beats"
PERFORMER "Public Domain"
INDEX 01 17:44:41
TRACK 05 AUDIO
TITLE "Definitely (DJ Scot Project remix)"
PERFORMER "Yoda Inc."
INDEX 01 22:33:08
TRACK 06 AUDIO
TITLE "Time & Space (Warp Brothers remix)"
PERFORMER "Pep 'n Up"
INDEX 01 28:19:58
TRACK 07 AUDIO
TITLE "Acid nightmare"
PERFORMER A*S*Y*S
INDEX 01 30:48:57
TRACK 08 AUDIO
TITLE "O (Overdrive)"
PERFORMER "DJ Scot Project"
INDEX 01 34:14:07
TRACK 09 AUDIO
TITLE "Blow the speakers (Original mix)"
PERFORMER "The Moon"
INDEX 01 37:10:35
TRACK 10 AUDIO
TITLE "Dare devil!!"
PERFORMER "Dare Devils"
INDEX 01 41:31:58
TRACK 11 AUDIO
TITLE "I'm your deejay (Progressive mix)"
PERFORMER "Zenith vs. Avex"
INDEX 01 45:29:61
TRACK 12 AUDIO
TITLE "Drop out!*"
PERFORMER Deepack
INDEX 01 51:45:04
TRACK 13 AUDIO
TITLE "Fire wire (DJ Scot Project remix)"
PERFORMER "Cosmic Gate"
INDEX 01 57:11:06
TRACK 14 AUDIO
TITLE "Folie a deux (Klub mix)"
PERFORMER S.H.O.K.K.
INDEX 01 62:24:63
TRACK 15 AUDIO
TITLE "Insane asylum (Smp club mix)"
PERFORMER "Thomas Trouble"
INDEX 01 67:50:47

I love this set!
Arrakis
7 is the Warmduscher Remix
11 is the Attack mix
13 is the DJ Scot Project Remix

1: Microbots - Cosmic Evolution (DJ Scot Project Remix)
2: Tankis & Savietto - Octopus (lost in case remix)
3: Mo-dem - Contact (we gotta connect) (warp brothers remix)
4: Public Domain - Rock da funky beats
5: Yoda Inc. - Definitely (dj scot project remix)
6: DJ X2000 - Modem (DJ Scot Project Remix)
7: A*S*Y*S - Acid nightmare (Warmduscher Remix)
8: DJ Scot Project - O (overdrive)
9: The Moon - Blow the speakers (original mix)
10: Dare Devils - !Dare devil!!
11: Zenith Vs. Avex - I'm your deejay (Attack mix)
12: Deepack - Dropout
13: Cosmic Gate - Fire wire (DJ Scot Project remix)
14: S.H.O.K.K. - Folie A Deux (Klub Mix) ?
15: Thomas Trouble - Insane asylum (smp club mix)
exte
11 isn't Attack Mix, it's Progressive Mix
11. Zenith vs. Awex - I'm Your DeeJay (Progressive Mix)
CLICK TO RETURN TO TOP OF PAGE
 
Privacy Statement