return to tranceaddict TranceAddict Forums Archive > Tracks Section > Tracklist Requests / Postings

 
Sander Kleinenber - Nu Breed 4
View this Thread in Original format
SneakyPete
Anyone have the cue list for both CD 1 and 2?

Thanks in advance

Pete
stella
CD 1

FILE "01-Sander_K_-_Global_Underground_Nu_Breed_4_CD_1.MP3" MP3
TRACK 01 AUDIO
INDEX 01 00:00:00
TRACK 02 AUDIO
INDEX 01 01:17:67
TRACK 03 AUDIO
INDEX 01 04:29:27
TRACK 04 AUDIO
INDEX 01 06:58:50
TRACK 05 AUDIO
INDEX 01 13:19:25
TRACK 06 AUDIO
INDEX 01 21:42:52
TRACK 07 AUDIO
INDEX 01 29:28:05
TRACK 08 AUDIO
INDEX 01 35:07:67
TRACK 09 AUDIO
INDEX 01 42:32:72
TRACK 10 AUDIO
INDEX 01 50:16:35
TRACK 11 AUDIO
INDEX 01 56:44:10
TRACK 12 AUDIO
INDEX 01 65:41:32


CD 2

FILE "02-Sander_K_-_Global_Underground_Nu_Breed_4_CD_2.MP3" MP3
TRACK 01 AUDIO
INDEX 01 00:00:00
TRACK 02 AUDIO
INDEX 01 01:01:62
TRACK 03 AUDIO
INDEX 01 06:59:55
TRACK 04 AUDIO
INDEX 01 13:28:25
TRACK 05 AUDIO
INDEX 01 16:57:57
TRACK 06 AUDIO
INDEX 01 23:26:02
TRACK 07 AUDIO
INDEX 01 28:24:62
TRACK 08 AUDIO
INDEX 01 33:51:30
TRACK 09 AUDIO
INDEX 01 41:21:60
TRACK 10 AUDIO
INDEX 01 47:01:35
TRACK 11 AUDIO
INDEX 01 55:38:22
TRACK 12 AUDIO
INDEX 01 62:58:10

Regards

Stella
SneakyPete
Thanks Stella.

Pete
CLICK TO RETURN TO TOP OF PAGE
 
Privacy Statement