return to tranceaddict TranceAddict Forums Archive > Tracks Section > Tracklist Requests / Postings

Pages: [1] 2 
Nick Warren - Live at MOS House Party 02-02-2002
View this Thread in Original format
Ugg
Here is the partial setlist for the recent Nick Warren @ MOS set.

Can anyone positively ID #10 as Cosmos - "Take Me With You"?

Also, is WOW - MindCircus the new Nick Warren & Fred Numf mix or Phunk Investigation mix?

Thx, Ugg.

---

Nick Warren - Live at MOS House Party 02-02-2002

01-Plug 'n Play - Time to Bob (Unknown Remix)
02-Way Out West - MindCircus (Phunk Investigation Mix)
03-Lexicon Avenue - Why R U Here ?
04-ID
05-Tilt feat Maria Nayler - Headstrong (Scapel Mix) [BARQ016D1, www.hooj.com]
06-ID
07-ID
08-male vocal sampling lustral "everytime"???
09-ID
10-Cosmos - Take me with you
torontotrance
Phunk Investigation mix is correct

There is an arguement to which song 10 is either cosmos-take me with you or planet funk - inside all the people (harvey's sleep ibiza mix)....i have no clue.
Ugg
quote:
Originally posted by torontotrance
Phunk Investigation mix is correct

There is an arguement to which song 10 is either cosmos-take me with you or planet funk - inside all the people (harvey's sleep ibiza mix)....i have no clue.


Thanks. :)

I own two copies of planet funk - inside all the people (harvey's sleep ibiza mix), and it is definitely NOT #10. (The Harvey mix is the first track on Sasha & Sander K. - Kiss 100 - NYE 2002, which is where I first heard it...)
torontotrance
cosmos - take me with you it is then
Ugg
Positive ID, #10 is Cosmos - Take Me With You
Now.. anyone know where I can get a 12" of this or is it white label/promo only?

Also, #2 does not sound like Phunk Investigation Mix. Could it be Phunk Investigation Dub? Does anyone have an MP3 of the Dub mix?

Thx
bluE_Neon
quote:
Originally posted by Ugg

Also, #2 does not sound like Phunk Investigation Mix. Could it be Phunk Investigation Dub? Does anyone have an MP3 of the Dub mix?

Thx


yes your right, #2 is not Phunk Investigation Mix..i have the full rip of that track...i think its the Dub mix as well...and i want this track its sweeeeet :)
bluE_Neon
#2 isn't the Phunk Investigation Dub either! just got the full rip of it...this is gotta be some me unknowed remix :)
Barracuda
Track Index In----Out-- Length-- ISRC---- Name
----- ----- ----------- ----------- ----------- ---------------- ---------------
1--1--00:00:00,00 00:05:36,19 00:05:36,19------ Plug 'n Play - Time to Bob (Unknown Remix)
2--1--00:05:36,19 00:11:43,30 00:06:07,11------ Way Out West - MindCircus (Not Phunk Investigation Mix ?)
3--1--00:11:43,30 00:18:24,50 00:06:41,20------ Lexicon Avenue - Why R U Here ?
4--1--00:18:24,50 00:22:55,49 00:04:30,74------ Track 4
5--1--00:22:55,49 00:31:00,70 00:08:05,21------ Tilt feat Maria Nayler - Headstrong (Scapel Mix)+ID??
6--1--00:31:00,70 00:37:39,64 00:06:38,69------ Track 6
7--1--00:37:39,64 00:45:22,53 00:07:42,64------ male vocal sampling lustral "everytime"???
8--1--00:45:22,53 00:51:54,02 00:06:31,24------ Track 8
9--1--00:51:54,02 00:59:54,31 00:08:00,29------ Cosmos - Take me with you
Ugg
Thanks for the track times, Barracuda.

I made a .cue, if anyone is interested: :cool:

FILE "nick_warren_-_live_at_mos_house_party-02-02-2002-xds-dj2k.x2.nu.mp3" MP3
TRACK 01 AUDIO
TITLE "Time to Bob (Unknown Remix)"
PERFORMER "Plug 'n Play"
INDEX 01 00:00:00
TRACK 02 AUDIO
TITLE "MindCircus (Unknown Mix)"
PERFORMER "Way Out West"
INDEX 01 05:36:19
TRACK 03 AUDIO
TITLE "Why R U Here?"
PERFORMER "Lexicon Avenue"
INDEX 01 11:43:30
TRACK 04 AUDIO
TITLE "Unknown"
PERFORMER "Track 4"
INDEX 01 18:24:50
TRACK 05 AUDIO
TITLE "Headstrong (Scapel Mix)"
PERFORMER "Tilt feat. Maria Nayler"
INDEX 01 22:55:49
TRACK 06 AUDIO
TITLE "Unknown"
PERFORMER "Track 6"
INDEX 01 31:00:70
TRACK 07 AUDIO
TITLE "Unknown (Lustral - Everytime?)"
PERFORMER "Track 7"
INDEX 01 37:39:64
TRACK 08 AUDIO
TITLE "Unknown"
PERFORMER "Track 8"
INDEX 01 45:22:53
TRACK 09 AUDIO
TITLE "Take Me With You"
PERFORMER "Cosmos"
INDEX 01 51:41:05
Ugg
I found a Mindcircus 12" on the Distinctive Breaks label at www.dancerecords.com. Check the real audio sample... the middle mix is the right one.

Mixes on this 12": Rmx by Fred Numf, Phunk Investigation, Jay Sleepwalker

It seems there may be more than one Phunk Investigation mix... unless it's the Jay Sleepwalker mix. I'll know for sure when I get the 12". ;)

Can anybody ID #8?

djpsi
andy get ur ass on MIRC and send me this set Plz.,

later
PSI
Barracuda
Track Index In----Out-- Length-- ISRC---- Name
----- ----- ----------- ----------- ----------- ---------------- ---------------
1--1--00:00:00,00 00:05:36,19 00:05:36,19------ Plug 'n Play - Time to Bob (Unknown Remix)
2--1--00:05:36,19 00:11:43,30 00:06:07,11------ Way Out West - MindCircus (Phunk Investigation Mix)
3--1--00:11:43,30 00:18:24,50 00:06:41,20------ Lexicon Avenue - Why R U Here ?
4--1--00:18:24,50 00:22:55,49 00:04:30,74------ Track 4
5--1--00:22:55,49 00:31:00,70 00:08:05,21------ Tilt feat Maria Nayler - Headstrong (Scapel Mix)+ID??
6--1--00:31:00,70 00:37:39,64 00:06:38,69------ Track 6
7--1--00:37:39,64 00:45:22,53 00:07:42,64------ male vocal sampling lustral "everytime"???
8--1--00:45:22,53 00:51:54,02 00:06:31,24------ Track 8
9--1--00:51:54,02 00:59:54,31 00:08:00,29------ Cosmos - Take me with you


01 Way Out West - Mindcircus (Original Radio Edit)............... [03:32]
02 Way Out West - Mindcircus (Phunk Investigation Mix)........... [08:1
03 Way Out West - Mindcircus (Gabriel And Dresden Mix)........... [09:3
04 Way Out West - Mindcircus (Way Out West Club Mix)............. [08:2
05 Way Out West - Mindcircus (Tarrentella Vs Redanka Vocal Mix).. [10:33]
06 Way Out West - Mindcircus (Fred Numf Vs Etienne Overdijk Mix). [07:3
07 Way Out West - Mindcircus (Phunk Investigation Dub)........... [07:49]

PROMO CDM released by tronikmp3
CLICK TO RETURN TO TOP OF PAGE
Pages: [1] 2 
Privacy Statement