return to tranceaddict TranceAddict Forums Archive > Tracks Section > Tracklist Requests / Postings

 
Cue File for Ferry Corsten live InnerCity please...
View this Thread in Original format
Unknowneduser
I need the cue file for innercity ferry corsten

thanx....
FILE "Ferry Corsten at Innercity 1999.mp3" MP3

TRACK 01 AUDIO
INDEX 01 00:00:00
TRACK 02 AUDIO
INDEX 01 04:18:71
TRACK 03 AUDIO
INDEX 01 09:06:21
TRACK 04 AUDIO
INDEX 01 13:55:32
TRACK 05 AUDIO
INDEX 01 17:34:33
TRACK 06 AUDIO
INDEX 01 22:33:40
TRACK 07 AUDIO
INDEX 01 26:11:25
TRACK 08 AUDIO
INDEX 01 30:30:36
TRACK 09 AUDIO
INDEX 01 36:25:09
TRACK 10 AUDIO
INDEX 01 40:15:32
TRACK 11 AUDIO
INDEX 01 45:34:46
TRACK 12 AUDIO
INDEX 01 50:38:47
TRACK 13 AUDIO
INDEX 01 53:22:37
TRACK 14 AUDIO
INDEX 01 58:23:15
TRACK 15 AUDIO
INDEX 01 63:37:37
TRACK 16 AUDIO
INDEX 01 67:29:58

have fun with it
Thanx for the Cue file.....
you wouldnt happen to have the cue file for
ferry corsten - trance energy
I have 2 one is
89:30
and the other is
131 something minutes long
either one is fine.....
CLICK TO RETURN TO TOP OF PAGE
 
Privacy Statement